#TITLE:Disabled the FLAW;
#SUBTITLE:;
#ARTIST:D-Crew;
#TITLETRANSLIT:;
#SUBTITLETRANSLIT:;
#ARTISTTRANSLIT:;
#CREDIT:;
#BANNER:disabledtheflaw-banner.png;
#BACKGROUND:disabledtheflaw-bg.png;
#LYRICSPATH:;
#CDTITLE:cdtitle.png;
#MUSIC:30.Disabled the FLAW (LONG Version).mp3;
#OFFSET:-0.452;
#SAMPLESTART:36.506;
#SAMPLELENGTH:12.000;
#SELECTABLE:YES;
#BPMS:0.000=171.000,52.000=72.500,54.000=171.000,166.000=342.000,182.000=171.000,198.000=684.000,214.000=173.000,310.000=86.500,311.000=43.250,312.000=21.625;
#STOPS:166.000=0.088
,166.500=0.088
,167.000=0.088
,167.500=0.088
,168.000=0.088
,168.500=0.088
,169.000=0.088
,169.500=0.088
,170.500=0.088
,171.000=0.088
,171.500=0.088
,171.917=0.088
,171.938=0.088
,172.500=0.088
,173.000=0.088
,173.500=0.088
,174.000=0.088
,174.500=0.088
,175.000=0.088
,175.500=0.088
,176.000=0.088
,176.500=0.088
,177.000=0.088
,177.500=0.088
,178.000=0.088
,178.500=0.088
,179.000=0.088
,179.500=0.088
,180.000=0.088
,180.500=0.088
,181.000=0.088
,181.500=0.088
,198.000=0.132
,198.500=0.132
,199.000=0.132
,199.500=0.132
,200.000=0.132
,200.500=0.132
,201.000=0.132
,201.500=0.132
,202.000=0.132
,202.500=0.132
,203.000=0.132
,203.500=0.132
,204.000=0.132
,204.500=0.132
,205.000=0.132
,205.500=0.132
,206.000=0.132
,206.500=0.132
,207.000=0.132
,207.500=0.132
,208.000=0.132
,208.500=0.132
,209.000=0.132
,209.500=0.132
,210.000=0.132
,210.500=0.132
,211.000=0.132
,211.500=0.132
,212.000=0.132
,212.500=0.132
,213.000=0.132
,213.500=0.132
;
#BGCHANGES:;
// cache tags:
#FIRSTBEAT:0.000;
#LASTBEAT:312.000;
#SONGFILENAME:Songs/Music V.I.P ^_^/Leadafros DTF/disabledtheflaw.sm;
#HASMUSIC:1;
#HASBANNER:1;
#MUSICLENGTH:115.963;
// end cache tags

//---------------dance-single - ----------------
#NOTES:
     dance-single:
     :
     Easy:
     13:
     1.000,1.000,1.000,0.698,0.604,730.000,301.000,81.000,0.000,64.000:

2002
0000
3003
0000
0101
0000
0001
0010
0100
0000
1010
0000
0100
0000
0010
0000
,
0202
0303
0000
0000
0000
0000
1000
0000
0000
0000
0000
0000
2002
3003
0000
0000
0000
0000
1000
0000
0000
0010
0000
0000
1000
0000
0000
0000
0000
0000
0100
0000
0000
0000
0000
0000
1000
0000
0000
0000
0000
0000
0010
0000
0000
0000
0000
0000
,
0110
0000
0100
0000
0110
0000
0001
1000
0100
0000
1000
0000
0010
0000
1000
0000
,
0011
0000
1100
0000
1000
0001
1000
0010
1000
0001
1000
0000
0001
0000
0000
0000
,
1001
0100
1100
0010
1001
0100
0001
0010
,
1001
0000
0010
0000
1000
0001
0100
0001
1100
0001
1000
0000
0010
0000
1000
0000
,
1010
0100
0101
0010
1100
1000
0011
0001
,
0101
0000
0001
0000
1000
0001
1000
0100
1000
0001
1000
0000
0010
0000
0100
0000
,
0001
0000
0000
0000
1000
0000
0000
0000
0100
0000
0010
0000
0000
0000
1000
0100
0010
0001
1000
0001
0010
0100
1000
0001
1000
0000
0100
0000
0001
0000
0000
0000
,
0011
1000
0100
1000
0001
0010
0100
0010
1001
0100
0001
1000
0011
0100
0001
1000
,
0101
1000
0001
0010
0001
1000
0100
1000
0001
0010
0001
1000
0100
1000
0001
0100
,
1010
0000
0110
0000
1001
0000
0000
0001
1000
0100
0010
0001
1100
0000
0101
0000
,
0101
0000
0101
0000
1100
0011
0000
0001
1000
0001
0100
0010
1000
0000
0011
0000
,
1001
0000
0000
0000
0000
0110
0000
0001
0000
1010
0000
0100
0000
1001
0000
0000
0001
0000
0000
0000
0010
0000
0000
0000
0100
0000
0000
0000
1000
0000
0010
0000
,
1000
0000
0001
0000
0100
0000
0010
0000
0100
0000
0001
0000
1000
0000
0100
0010
,
0001
0000
0100
0000
0010
0000
0100
0000
0001
0000
0100
0000
0010
0000
0011
1000
,
0011
0000
1001
0000
0000
0000
1000
0000
0100
0000
0010
0000
0101
1000
0010
0100
,
1001
0100
0011
0000
0100
1000
0010
0000
1000
0000
0010
0000
0001
0000
0100
0010
,
1100
0000
0001
0000
1100
0010
0100
0000
0001
0000
0010
0000
0100
0000
1100
0001
,
1100
0000
0001
0000
0110
0001
0110
0000
0010
0000
0001
0000
1100
0010
0001
1000
,
0110
0000
1100
0000
0000
0000
1001
0000
1100
0100
1100
0000
0011
0010
0011
0000
,
0010
0001
1000
0010
0100
0001
1000
0000
0001
0000
0010
0000
0100
0000
1100
0100
,
0011
0000
0001
0000
0100
0000
0010
0000
1001
0000
0101
0000
1100
0000
0011
1000
,
0011
0000
0100
0000
0010
0000
0100
0000
0011
0000
1100
0000
0101
0000
0011
1000
,
0110
0000
0100
0000
0000
0000
1100
0000
0101
0000
0110
0000
0011
1000
0010
0100
,
0001
0100
1000
0000
0100
0001
0010
0000
1000
0000
0010
0000
0001
0000
0100
0010
,
1000
0000
0001
0000
1000
0010
0100
0000
0011
0000
0110
0000
1100
0000
1000
0010
,
0100
0000
0001
0000
0100
0001
0100
0000
0110
0000
1100
0000
0100
0010
0001
0100
,
0011
0000
1100
0000
0000
0000
1001
0000
0100
0010
0100
0000
0001
1000
0100
0000
,
0110
0001
1000
0010
1100
0001
1000
0000
0010
0000
0000
1100
0011
0000
1000
0000
,
0011
1100
0001
0000
0011
0000
0100
0000
0011
1100
0010
0000
0001
0000
1000
0110
,
1100
0000
0001
0000
0010
0100
1000
0000
0010
0000
0000
0110
0011
0000
1000
0000
,
0110
0011
0001
0000
0110
0000
0100
0000
0001
1000
0010
0000
0100
0000
0010
0000
,
0000
0001
1000
0000
0010
0100
0001
0000
0100
0000
1000
0011
1100
0000
0001
0000
,
0110
0011
1000
0000
0000
0000
0101
0000
0000
0000
0110
0000
0011
0000
0100
1100
,
0110
0000
1000
0000
0010
0100
0001
0000
0100
0000
0000
0011
1100
0000
0100
0000
,
0000
0000
0010
0000
0001
0100
0010
0000
1000
0000
0000
1100
0011
0000
0001
0000
,
0000
0100
0001
0010
1100
0010
1000
0000
0102
0000
1100
0000
1203
0000
0321
0000
,
2130
0000
3021
0000
0231
0300
1000
0000
0010
0000
0011
0000
0110
0000
1100
0000
,
1100
0001
0110
0001
1010
0011
0110
1100
,
0011
1100
0010
0001
0100
1000
1100
0010
,
1001
0110
0011
1000
0021
1230
0312
0213
,
1302
2013
3020
0230
1301
0210
0321
2130
,
3102
2013
3102
2013
3210
1320
0032
0203
,
0312
1203
0312
1203
0320
2030
3002
0213
,
0312
2103
3201
0321
0031
0010
0110
1000
,
0101
0010
0110
1000
0001
0110
1100
1000
,
1010
0100
0101
0010
0110
1000
1010
1000
,
0110
0110
0011
1100
0010
0100
0101
1100
,
0010
1010
0011
1010
2100
3210
0312
0123
,
2130
3120
2130
3210
0312
0123
2130
3210
,
0312
0123
2130
3210
0312
0123
2130
3210
,
0312
0123
2130
3210
0312
0123
2130
3210
,
0312
0123
2130
3210
0301
1000
0000
2002
,
0000
0010
0000
3103
0000
0110
0000
0110
,
0000
0010
0100
0001
1100
1001
0000
2002
,
0000
0000
0100
0000
0000
0000
3103
0000
0001
0000
0011
0000
1100
0000
0000
0010
,
0100
0000
1000
0001
0100
0000
0010
0000
1010
0000
1010
0000
0010
0000
1100
0000
,
0001
1100
0001
0010
0011
0101
0001
0010
,
0110
1100
0101
1100
1010
1000
0110
1000
,
0011
0100
1100
1000
1001
0001
0100
0010
,
0110
1010
0011
0101
0011
0001
0011
0100
,
1100
0001
1100
0110
0011
0001
1010
1000
,
1100
1010
0011
1010
1100
0100
1001
0010
,
0110
0001
1100
0001
0011
0010
0110
1000
,
1100
1010
0011
0101
0011
0010
0011
0100
,
0110
1000
1100
0010
0011
0001
0110
0010
,
1010
1100
1100
0011
0011
0010
1100
0010
,
0110
0001
1100
0001
0101
0100
0010
1000
,
1010
0000
0011
0000
0101
0000
1100
0000
0100
0000
1000
0010
0100
0000
0001
0000
,
0001
0010
1000
0100
0001
0000
1000
0010
1100
0000
1000
0001
0010
0000
0011
0000
,
1100
0001
0110
1000
0110
0000
1001
0100
0011
0000
1000
0001
0010
0000
0100
0000
,
1000
0001
1000
0010
0100
0000
0001
0100
1001
0000
0010
0100
1000
0000
0110
0000
,
0011
1000
0110
0001
1010
0000
0011
1000
0110
0000
1000
0001
0100
0000
0010
0000
,
1000
0100
0010
0001
0100
0000
0010
1000
0011
0000
0010
0100
0010
0000
0001
0000
,
0010
0100
1100
0001
0110
0000
0011
1000
0110
0000
0100
0010
1000
0000
0001
0000
,
0010
0100
1000
0001
1100
0000
0011
0100
1001
0000
0010
0100
1000
0000
0010
0000
,
1000
0100
1001
0100
0011
0000
0101
0010
2002
0000
0000
0000
0000
0000
0000
0000
,
3003
0000
0000
0000
;
